-Цитатник

Без заголовка - (0)

* //s58.radikal.ru/i161/1008/c9/ce9f614a3192.jpg //s45.radikal.ru/i107/1008/25/edd5b...

Без заголовка - (0)

Рефлексология - о чем говорят ступни Схематическая проекция органов на ступне   Из книги...

Без заголовка - (0)

Письмо оператору сотовой связи Мой уважемый, оператор сотовой связи! Хочу Вам сказать, ч...

Без заголовка - (0)

Интернет-математика Как же забавно порой бывает... И ведь правда же...

Стереотипная карта Европы - (0)

Стереотипная карта Европы Тоже довольно интересная карта, наполненная стереотипами чуть более...

 -неизвестно

 -Friends for Love


Только для студентов! Не веришь?

Рейтинг игроков LiveInternet.ru

1. Маргорита13 - 654 ( +17)
2. Ясенок! - 608
3. Суанэ - 556 ( +19)
4. Патока - 532
5. РњРёСЂСЌР№РЅ - 458 ( +6)

Максимальный выигрыш игроков LiveInternet.ru

1. InO_o - 84 600 Лир (20:21 28.08.2008)
2. vikysik_love - 65 089 Лир (13:13 23.08.2008)
3. Ясенок! - 57 240 Лир (15:57 10.08.2008)
4. nuns - 55 800 Лир (22:35 07.09.2008)
5. vierassi - 46 420 Лир (20:38 24.10.2008)

Мой рейтинг

не сыграно ни одной игры.

Мой максимальный выигрыш

не сыграно ни одной игры.
Данные обновляются раз в день при входе в игру

 -Я - фотограф

Москва 2010


0 фотографий

 -Маршруты Москвы

 -Профайлер

Список анкет пользователя (1)

 -Подписка по e-mail

 

 -Поиск по дневнику

Поиск сообщений в dimaker

 -Сообщества

Читатель сообществ (Всего в списке: 6) РАНЕТКИ -ОКСАНА_КОВАЛЕВСКАЯ- BDSM-Club BDSM-BAR bdsm_world LiveInternet

 -Статистика

Статистика LiveInternet.ru: показано количество хитов и посетителей
Создан: 01.09.2005
Записей:
Комментариев:
Написано: 5499


Movavi бездраное ПО

Понедельник, 08 Июля 2013 г. 00:31 + в цитатник
Столкнулись с проблемой в программе , не кодирует Mpeg2
тех данные файла
Complete name : C:\Disk\Sergeй_Ya_ne_lyublyu.mpg
Format : MPEG-PS
File size : 193 MiB
Duration : 3mn 12s
Overall bit rate : 8 434 Kbps

Video
ID : 224 (0xE0)
Format : MPEG Video
Format version : Version 2
Format profile : Main@Main
Format settings, BVOP : Yes
Format settings, Matrix : Custom
Format settings, GOP : M=3, N=15
Duration : 3mn 12s
Bit rate : 8 000 Kbps
Width : 720 pixels
Height : 576 pixels
Display aspect ratio : 4:3
Frame rate : 25.000 fps
Standard : PAL
Color space : YUV
Chroma subsampling : 4:2:0
Bit depth : 8 bits
Scan type : Interlaced
Scan order : Top Field First
Compression mode : Lossy
Bits/(Pixel*Frame) : 0.772
Time code of first frame : 00:00:00:00
Time code source : Group of pictures header
Stream size : 184 MiB (95%)

Audio
ID : 192 (0xC0)
Format : MPEG Audio
Format version : Version 1
Format profile : Layer 2
Duration : 3mn 12s
Bit rate mode : Constant
Bit rate : 224 Kbps
Channel(s) : 2 channels
Sampling rate : 48.0 KHz
Compression mode : Lossy
Stream size : 5.13 MiB (3%)




, написали в тех поддержку разработчику , приложили файл ответил некий товарищ Денис Полянский
проблема не решилась , после чего супорт на МЕСЯЦ практически пропал, через месяц пришел невразумительный ответ , ответили что не помогло проблема досих пор не решена .
ВОПРОС ЗАЧЕМ ПРОДАВАТЬ ГАВНО ПО НА КОТОРОЕ movavi не может сделать грамотную тех поддержку.



 

Добавить комментарий:
Текст комментария: смайлики

Проверка орфографии: (найти ошибки)

Прикрепить картинку:

 Переводить URL в ссылку
 Подписаться на комментарии
 Подписать картинку